Torrent Details

2 0 2018 Hindi 720p PRE DVDRip x264 [MW]
2 0 2018 Hindi 720p PRE DVDRip x264 [MW]
Size1.4 GB in 1 file
ReleasesAdded on 12/01/18 at 7:03am into the Movies category by Unknown.
Status0 seeds & 0 peers.
Hash428442e52310fba79cc484d8789a53959a0908f1
Rating
  • YourBT Visitors

Status This torrent has been verified.
*

Torrent Description

General
Format : Matroska
Format version : Version 4 / Version 2
File size : 1.37 GiB
Duration : 2 h 17 min
Overall bit rate : 1 425 kb/s1

Video
ID : 1
Format : AVC
Format/Info : Advanced Video Codec
Format profile : [email protected]
Format settings : CABAC / 4 Ref Frames
Format settings, CABAC : Yes
Format settings, RefFrames : 4 frames
Codec ID : V_MPEG4/ISO/AVC
Duration : 2 h 17 min
Bit rate : 1 300 kb/s
Width : 1 280 pixels
Height : 532 pixels
Display aspect ratio : 2.40:1
Frame rate mode : Constant
Frame rate : 25.000 FPS
Color space : YUV
Chroma subsampling : 4:2:0
Bit depth : 8 bits
Scan type : Progressive
Bits/(Pixel*Frame) : 0.076
Stream size : 1.24 GiB (91%)
Writing library : x264 core 155 r2901 7d0ff22
Default : Yes
Forced : No

Audio
ID : 2
Format : AAC
Format/Info : Advanced Audio Codec
Format profile : LC
Codec ID : A_AAC-2
Duration : 2 h 17 min
Bit rate : 128 kb/s
Channel(s) : 2 channels
Channel positions : Front: L R
Sampling rate : 48.0 kHz
Frame rate : 46.875 FPS (1024 SPF)
Compression mode : Lossy
Stream size : 126 MiB (9%)
Language : Hindi
Default : Yes
Forced : No


Click To View Image










Similar Torrents

No Similar Torrents Found

If we find similar torrents, we normally show them right here. We couldn't find anything for "".

Torrent Trackers

Files inside this torrent

FILENAMESIZE
icon 2.0 2018 Hindi 720p PRE DVDRip x264 [MW].mkv1.4 GB