Torrent Details

Fantastic Beasts The Crimes of Grindelwald 2018 1080p HC HDRip x264 Dual Audio [Hindi - English] [MW]
Fantastic Beasts The Crimes of Grindelwald 2018 1080p HC HDRip x264 Dual Audio [Hindi - English] [MW]
Size2.1 GB in 1 file
ReleasesAdded on 12/17/18 at 10:51am into the Movies category by Unknown.
Status59 seeds & 4 peers.
Hasha73ba57f42791ca28bedc7235161903cbb9d3cb0
Rating
  • YourBT Visitors

Status This torrent has been verified.
*

Torrent Description





General

Format                                   : Matroska

Format version                           : Version 4 / Version 2

File size                                : 2.08 GiB

Duration                                 : 2 h 13 min

Overall bit rate                         : 2 231 kb/s



Video

ID                                       : 1

Format                                   : AVC

Format/Info                              : Advanced Video Codec

Format profile                           : [email protected]

Format settings                          : CABAC / 4 Ref Frames

Format settings, CABAC                   : Yes

Format settings, RefFrames               : 4 frames

Codec ID                                 : V_MPEG4/ISO/AVC

Duration                                 : 2 h 13 min

Bit rate                                 : 2 000 kb/s

Width                                    : 1 920 pixels

Height                                   : 800 pixels

Display aspect ratio                     : 2.40:1

Frame rate mode                          : Constant

Frame rate                               : 60.000 FPS

Color space                              : YUV

Chroma subsampling                       : 4:2:0

Bit depth                                : 8 bits

Scan type                                : Progressive

Bits/(Pixel*Frame)                       : 0.022

Stream size                              : 1.84 GiB (88%)

Writing library                          : x264 core 155 r2901 7d0ff22

Default                                  : Yes

Forced                                   : No



Audio #1

ID                                       : 2

Format                                   : AAC

Format/Info                              : Advanced Audio Codec

Format profile                           : LC

Codec ID                                 : A_AAC-2

Duration                                 : 2 h 13 min

Bit rate                                 : 128 kb/s

Channel(s)                               : 2 channels

Channel positions                        : Front: L R

Sampling rate                            : 48.0 kHz

Frame rate                               : 46.875 FPS (1024 SPF)

Compression mode                         : Lossy

Stream size                              : 122 MiB (6%)

Language                                 : Hindi

Default                                  : Yes

Forced                                   : No



Audio #2

ID                                       : 3

Format                                   : AAC

Format/Info                              : Advanced Audio Codec

Format profile                           : LC

Codec ID                                 : A_AAC-2

Duration                                 : 2 h 13 min

Bit rate                                 : 129 kb/s

Channel(s)                               : 2 channels

Channel positions                        : Front: L R

Sampling rate                            : 48.0 kHz

Frame rate                               : 46.875 FPS (1024 SPF)

Compression mode                         : Lossy

Stream size                              : 123 MiB (6%)

Language                                 : English

Default                                  : No

Forced                                   : No





Click To View Image



http://pichub.site/image/cFwAt

http://pichub.site/image/cFy64

http://pichub.site/image/cFiCy

http://pichub.site/image/cFh4p

http://pichub.site/image/cFtLb

http://pichub.site/image/cFzQ0



Similar Torrents

No Similar Torrents Found

If we find similar torrents, we normally show them right here. We couldn't find anything for "".

Torrent Trackers

TRACKER URLSEEDSPEERS
Onlineudp://tracker.opentrackr.org:1337/announce594

Files inside this torrent

FILENAMESIZE
icon Fantastic Beasts The Crimes of Grindelwald 2018 1080p HC HDRip x264 Dual Audio [Hindi - English] [MW].mkv2.1 GB