Torrent Details

Johnny English Strikes Again 2018 1080p BluRay x264 DTS 5 1 MSubS-Hon3yHD
Johnny English Strikes Again 2018 1080p BluRay x264 DTS 5 1 MSubS-Hon3yHD
Size4.4 GB in 4 files
ReleasesAdded on 12/20/18 at 9:40pm into the Movies category by Unknown.
Status7 seeds & 4 peers.
Hash1db2d7d6a783d6e2c81d7645c8310d4d9c3991e5
Rating
  • YourBT Visitors

Status This torrent has been verified.
*

Torrent Description

Johnny English Strikes Again 2018 1080p BluRay x264 DTS 5.1 MSubS-Hon3yHD

Source - BD50 @ SCENE

Format : Matroska
Format version : Version 4 / Version 2
File size : 4.36 GiB
Duration : 1 h 28 min
Overall bit rate : 7 057 kb/s
Movie name : Johnny English Strikes Again 2018 - Hon3yHD
Encoded date : UTC 2018-12-20 17:46:50
Writing application : mkvmerge v25.0.0 ('Prog Noir') 64-bit
Writing library : libebml v1.3.6 + libmatroska v1.4.9

Video
ID : 1
Format : AVC
Format/Info : Advanced Video Codec
Format profile : [email protected]
Format settings, CABAC : Yes
Format settings, ReFrames : 5 frames
Codec ID : V_MPEG4/ISO/AVC
Duration : 1 h 28 min
Bit rate : 5 916 kb/s
Width : 1 920 pixels
Height : 800 pixels
Display aspect ratio : 2.40:1
Frame rate mode : Constant
Frame rate : 23.976 (24000/1001) FPS
Language : English
Default : Yes
Forced : No
Color range : Limited
Color primaries : BT.709
Transfer characteristics : BT.709
Matrix coefficients : BT.709

Audio #1
ID : 2
Format : DTS
Format/Info : Digital Theater Systems
Mode : 16
Format settings, Endianness : Big
Codec ID : A_DTS
Duration : 1 h 28 min
Bit rate mode : Constant
Bit rate : 768 kb/s
Channel(s) : 6 channels
Channel positions : Front: L C R, Side: L R, LFE
Sampling rate : 48.0 kHz
Frame rate : 93.750 FPS (512 spf)
Bit depth : 24 bits
Compression mode : Lossy
Stream size : 486 MiB (11%)
Language : English
Default : Yes
Forced : No

Audio #2
ID : 3
Format : AC-3
Format/Info : Audio Coding 3
Format profile : Dolby Digital
Mode extension : CM (complete main)
Format settings, Endianness : Big
Codec ID : A_AC3
Duration : 1 h 28 min
Bit rate mode : Constant
Bit rate : 192 kb/s
Channel(s) : 2 channels
Channel positions : Front: L R
Sampling rate : 48.0 kHz
Frame rate : 31.250 FPS (1536 spf)
Bit depth : 16 bits
Compression mode : Lossy
Stream size : 122 MiB (3%)
Title : Commentary
Language : English
Default : No
Forced : No

Audio #3
ID : 4
Format : AC-3
Format/Info : Audio Coding 3
Format profile : Dolby Digital
Mode extension : CM (complete main)
Format settings, Endianness : Big
Codec ID : A_AC3
Duration : 1 h 28 min
Bit rate mode : Constant
Bit rate : 192 kb/s
Channel(s) : 2 channels
Channel positions : Front: L R
Sampling rate : 48.0 kHz
Frame rate : 31.250 FPS (1536 spf)
Bit depth : 16 bits
Compression mode : Lossy
Stream size : 122 MiB (3%)
Title : Commentary
Language : English
Default : No
Forced : No

Text #1
ID : 5
Format : UTF-8
Codec ID : S_TEXT/UTF8
Codec ID/Info : UTF-8 Plain Text
Duration : 1 h 22 min
Bit rate : 66 b/s
Count of elements : 1301
Stream size : 40.3 KiB (0%)
Language : English
Default : Yes
Forced : No

Text #2
ID : 6
Format : UTF-8
Codec ID : S_TEXT/UTF8
Codec ID/Info : UTF-8 Plain Text
Duration : 1 h 23 min
Bit rate : 116 b/s
Count of elements : 1629
Stream size : 71.4 KiB (0%)
Title : Commentary
Language : English
Default : No
Forced : No

Menu
00:00:00.000 : en:00:00:00.000
00:05:06.681 : en:00:05:06.681
00:09:05.378 : en:00:09:05.378
00:13:14.794 : en:00:13:14.794
00:19:22.370 : en:00:19:22.370
00:21:31.832 : en:00:21:31.832
00:26:41.975 : en:00:26:41.975
00:32:31.241 : en:00:32:31.241
00:34:48.086 : en:00:34:48.086
00:39:49.429 : en:00:39:49.429
00:45:49.121 : en:00:45:49.121
00:51:22.204 : en:00:51:22.204
00:54:31.852 : en:00:54:31.852
00:58:58.201 : en:00:58:58.201
01:02:58.441 : en:01:02:58.441
01:08:21.597 : en:01:08:21.597
01:11:40.963 : en:01:11:40.963
01:15:03.416 : en:01:15:03.416
01:20:54.808 : en:01:20:54.808
01:23:52.527 : en:01:23:52.527



Similar Torrents

No Similar Torrents Found

If we find similar torrents, we normally show them right here. We couldn't find anything for "".

Torrent Trackers

TRACKER URLSEEDSPEERS
Onlineudp://tracker.opentrackr.org:1337/announce74

Files inside this torrent

FILENAMESIZE
icon Torrent Seed By www.cyber-planet.in.txt94 B
icon Johnny English Strikes Again 2018 1080p BluRay x264 DTS 5.1 MSubS-Hon3yHD.mkv4.4 GB
icon Hon3yHD.com.txt39 B
icon Sample.mkv36.6 MB