Torrent Details

Venom 2018 x264 720p Esub BluRay Dual Audio English Hindi GOPISAHI
Venom 2018 x264 720p Esub BluRay Dual Audio English Hindi GOPISAHI
Size717 MB in 1 file
ReleasesAdded on 01/03/19 at 5:30pm into the Movies category by Unknown.
Status4 seeds & 4 peers.
Hashe2e8a8fc2f07db3fbc176129cc11b68317ac6263
Rating
  • YourBT Visitors

Status This torrent has been verified.
*

Torrent Description

http://www.gopisahi.pw/

Format : Matroska
Format version : Version 4 / Version 2
File size : 717 MiB
Duration : 1 h 52 min
Overall bit rate : 894 kb/s
Movie name : Venom 2018 GOPISAHI

Video
Format : AVC
Format/Info : Advanced Video Codec
Codec ID : V_MPEG4/ISO/AVC
Duration : 1 h 52 min
Bit rate : 699 kb/s
Width : 1 280 pixels
Height : 534 pixels
Display aspect ratio : 2.40:1
Frame rate mode : Constant
Frame rate : 23.976 (24000/1001) FPS
Color space : YUV
Chroma subsampling : 4:2:0
Bit depth : 8 bits
Scan type : Progressive
Bits/(Pixel*Frame) : 0.043
Stream size : 560 MiB (78%)
Title : GOPISAHI
Writing library : x264 core 155 r2901 7d0ff22

Audio #1
Format : AAC
Duration : 1 h 52 min
Bit rate : 96.0 kb/s
Channel(s) : 2 channels
Channel positions : Front: L R
Sampling rate : 48.0 kHz
Frame rate : 46.875 FPS (1024 SPF)
Compression mode : Lossy
Delay relative to video : -8 ms
Stream size : 77.2 MiB (11%)
Title : GOPISAHI
Language : Hindi

Audio #2
Format : AAC
Duration : 1 h 52 min
Bit rate : 96.0 kb/s
Channel(s) : 2 channels
Channel positions : Front: L R
Sampling rate : 48.0 kHz
Frame rate : 46.875 FPS (1024 SPF)
Compression mode : Lossy
Delay relative to video : -21 ms
Stream size : 77.1 MiB (11%)
Title : GOPISAHI
Language : English

Text
Language : English




Similar Torrents

No Similar Torrents Found

If we find similar torrents, we normally show them right here. We couldn't find anything for "".

Torrent Trackers

TRACKER URLSEEDSPEERS
Onlineudp://tracker.opentrackr.org:1337/announce44

Files inside this torrent

FILENAMESIZE
icon Venom 2018 x264 720p Esub BluRay Dual Audio English Hindi GOPISAHI.mkv717.2 MB